#TITLE:Contain;
#SUBTITLE:;
#ARTIST:Venetian Snares;
#TITLETRANSLIT:;
#SUBTITLETRANSLIT:;
#ARTISTTRANSLIT:;
#CREDIT:;
#BANNER:contain-bn.png;
#BACKGROUND:contain-bg.png;
#LYRICSPATH:;
#CDTITLE:!ExigeTitle.png;
#MUSIC:03 - containCUT.mp3;
#OFFSET:-5.790;
#SAMPLESTART:48.300;
#SAMPLELENGTH:12.000;
#SELECTABLE:YES;
#BPMS:0.000=188.000;
#STOPS:;
#BGCHANGES:;
// cache tags:
#FIRSTBEAT:20.000;
#LASTBEAT:420.500;
#SONGFILENAME:Songs/Music V.I.P ^_^/Contain- Exige/contain.sm;
#HASMUSIC:1;
#HASBANNER:1;
#MUSICLENGTH:147.539;
// end cache tags

//---------------dance-single - ----------------
#NOTES:
     dance-single:
     :
     Challenge:
     13:
     1.000,1.000,1.000,0.203,1.000,975.000,196.000,30.000,0.000,2.000:
0000
0000
0000
0000
,
0000
0000
0000
0000
,
0000
0000
0000
0000
,
0000
0000
0000
0000
,
0000
0000
0000
0000
,
1001
0000
0000
1001
0000
0000
0010
0000
0010
0100
0010
1000
0010
0000
0010
0100
,
1010
0000
0000
0000
1010
0000
0000
1000
0000
0010
0001
0010
0100
0001
0010
0100
,
1000
0100
1000
0010
1000
0000
1000
0000
1001
0000
0000
1100
0000
0000
0020
0030
,
0020
0000
0030
0000
0010
0000
0100
1000
0100
0010
0001
0010
0100
0000
1000
0000
0001
0000
0000
0000
0101
0000
0000
0000
1001
0000
0000
0000
0000
0000
0110
0000
,
0000
0000
0010
0100
0010
1000
0100
0000
0100
0001
0100
0010
0001
1000
0100
0010
,
1001
0000
0000
1001
0000
0000
0001
0010
0001
0010
0001
0100
0010
0100
0010
1000
,
0100
0010
0001
0100
1001
0000
0000
1001
0000
0000
0010
0100
0001
0100
0010
0100
,
0001
0100
0010
0100
1000
0001
1010
0000
1100
0000
0000
1010
0000
0100
1000
0000
,
1000
0000
1000
0100
0010
1000
0100
0001
1000
0010
0001
1000
0201
0000
0300
0210
,
0000
0300
0001
1000
0010
0100
2000
0100
3010
1000
0001
1000
0110
0000
0110
0000
,
0101
0000
0000
0101
0000
0000
0001
0010
1000
0001
1000
0001
1010
0000
1000
0100
,
1001
0000
1001
0000
0101
0000
0000
0101
0000
0000
0001
0100
0001
0100
0001
0100
,
0010
0001
1000
0100
0010
1000
0101
0000
0101
0000
0000
0101
0000
0000
0002
0023
,
0032
0000
0000
0000
2003
0000
0000
0000
3001
0000
0100
0010
1000
0001
0000
0000
0100
0000
0010
0000
1000
0000
0001
0000
0100
0000
0000
0000
0010
0000
0000
0000
1001
0000
0000
0000
0000
0000
0000
0000
0202
0000
0000
0000
0303
0000
0000
0000
1010
0000
0000
0000
0000
0000
0000
0000
0000
0000
0000
0000
0101
0000
0000
0000
,
0000
0000
0001
0100
0010
1000
0010
1000
0100
0010
0100
1000
0001
0010
0101
0000
,
1010
0000
0000
0101
0000
0000
0001
0010
0100
0001
0010
1000
0010
0001
0010
1000
,
0001
0010
0001
1000
0101
0000
0101
0000
0010
0101
0000
0000
0001
0100
0001
0100
,
1000
0010
1000
0010
0100
0001
0010
0001
1100
0000
0000
1010
0000
0000
1010
0000
,
1010
0000
0100
0000
0100
0010
1001
0000
0010
0100
1001
0000
0002
0000
0003
0002
,
0000
0003
0000
0000
0000
0000
0002
0000
0003
0010
0001
0010
0001
0100
0001
0010
,
1001
0000
0000
0101
0000
0000
1010
0000
0100
0000
0101
0000
0001
0000
0001
0010
,
0101
0000
1001
0000
1010
0000
0000
1100
0000
0000
1000
0001
1000
0010
1000
0100
,
1001
0000
0010
0100
1000
0001
1010
0000
1001
0000
0000
1010
0000
0000
1000
0010
,
1000
0000
0000
0001
0000
0000
0010
0000
0100
0000
1000
0000
0001
0000
0000
0010
0000
0000
0101
0000
0000
1010
0000
0000
0000
0000
0000
0000
0000
0000
0000
0000
0000
0000
0000
0000
0000
0000
0000
0000
0000
0000
0000
0000
0000
0000
0000
0000
,
0000
0000
0000
0000
0000
0000
0000
0110
,
0110
0000
0000
0110
0000
0000
0010
0100
0010
0100
1001
0000
1001
0000
1001
0010
,
0100
1000
0001
0010
1100
0000
0000
1010
0000
0000
1000
0010
1000
0010
1000
0001
,
1000
0010
1000
0100
0010
0001
1010
0000
1010
0000
0000
1100
0000
0000
2010
3000
,
2001
3000
0001
0010
1000
0010
0001
0010
0001
0100
0010
1000
0201
0000
0300
0201
,
0000
0300
0101
0000
0010
0101
2000
0000
3101
0000
0001
0100
0001
0000
1001
0000
,
1100
0000
0000
1100
0000
0000
1100
0000
1100
0000
1100
0000
1100
0000
1000
0100
,
0001
0000
0000
0000
0000
0000
0000
0000
0101
0000
0000
0000
0000
0000
0000
0000
0110
0000
0000
0000
0000
0000
0000
0000
0000
0000
0000
0000
0110
0000
0000
0000
0000
0000
0000
0000
0000
0000
0000
0000
0001
0010
0100
1000
0100
0000
0000
0000
0001
0010
0100
1000
0100
0000
0000
0000
0010
0000
0000
0000
0100
0000
0000
0000
,
0002
0000
0000
0000
0103
0000
0000
0000
0001
0010
0100
0000
1000
0000
0000
0000
0100
0000
0000
0000
0010
0000
0000
0000
1000
0100
0010
0000
0001
0000
0000
0000
1010
0000
0000
0000
0000
0000
0000
0000
0000
0000
0000
0000
1010
0000
0000
0000
0000
0000
0000
0000
0000
0000
0000
0000
1000
0000
0000
0000
0100
0000
0000
0000
,
0010
0000
0000
0001
0000
0000
1000
0000
0100
0000
0010
0000
0001
0000
0000
0100
0000
0000
1010
0000
0000
0101
0000
0000
0000
0000
0000
0000
0000
0000
0000
0000
0000
0000
0000
0000
0000
0000
0000
0000
0000
0000
0000
0000
0000
0000
0000
0000
,
0000
0000
0000
0000
0000
0000
0000
0101
,
0110
0000
0000
0110
0000
0010
1001
0000
0001
0100
0001
0010
0100
1000
0001
0100
,
0001
0000
0000
0000
0010
0000
0000
0000
1000
0100
0010
0001
0010
0100
1000
0000
0011
0000
0000
0000
0000
0000
0000
0000
0000
0000
0000
0000
1001
0000
0000
0000
0000
0000
0000
0000
0000
0000
0000
0000
0100
0000
0000
0000
1000
0000
0000
0000
0010
0000
0000
0000
0100
0000
0000
0000
0010
0000
0000
0000
1000
0000
0000
0000
,
0010
0100
0010
0001
0010
0100
1010
0000
1010
0000
0000
1001
0000
0000
0011
0000
,
0011
0000
0001
0010
0001
0100
0001
0010
0001
1000
0001
0010
0002
0000
0003
0002
,
0000
0003
0000
0000
0000
0000
0002
0000
0003
0000
0000
0000
0000
0000
0000
0000
,
1001
0001
0001
0001
0001
0001
0001
0001
,
0011
0001
0001
0001
0101
0001
0001
0001
,
0001
0001
0001
0001
1001
0001
0001
0001
,
0001
0001
0101
0001
0001
0001
0001
0001
,
0001
0001
0001
0001
0001
0001
0001
0001
,
0101
0001
0001
0001
0001
0001
0001
0001
,
0011
0001
0001
0001
1001
0001
0001
0001
,
0001
0001
0001
0001
0011
0001
0001
0001
,
0001
0001
0101
0001
0001
0001
0001
0001
,
0001
0001
0001
0001
0001
0001
0001
0001
,
1001
0000
0010
0000
0010
0000
0010
0000
0010
0100
0010
1000
0010
0100
0010
0100
,
1010
1000
1000
1000
1010
1000
1000
1000
,
0010
0100
0001
0100
0010
1000
0010
1000
0101
0000
0001
0000
0001
0000
0001
0000
,
0101
0001
0101
0100
0100
0100
0100
0110
,
1010
1000
1000
1000
1000
1010
1000
1100
,
1001
0001
0001
0001
0001
0001
0001
0001
,
0101
0100
0100
0100
0101
0100
0100
0100
,
0001
0100
0001
0010
0001
0100
0001
0010
1001
0000
1000
0000
1000
0000
1000
0000
,
1010
0010
0110
0100
0100
0100
0100
0110
,
0101
0001
0001
0001
0001
0001
0101
0001
,
1001
0000
1100
0000
1010
0000
0010
0000
0010
0000
0010
0000
0010
1000
0010
0100
,
1010
1000
1010
0010
0110
0100
0100
0100
,
0110
0000
0101
0000
0001
0010
0001
0000
0101
0000
0100
0000
0100
0000
0100
0000
,
0100
0100
0110
0010
0010
0010
0010
0011
,
1001
1000
1000
1000
1000
1000
1010
0010
,
1010
0000
1000
0000
1000
0000
1000
0000
1000
0010
1000
0010
1000
0100
0010
0001
,
1100
0100
0100
0100
0101
0100
0100
0110
,
1010
0000
1000
0100
0001
0100
0010
1000
0101
0000
0001
0000
1001
0000
1000
0000
,
1010
0010
0110
0100
0100
0100
0100
0110
,
1010
1000
1000
1000
1000
1000
1010
0010
,
0110
0100
0100
0100
0000
0000
0000
0000
,
0100
0100
0100
0100
0100
0100
0100
0100
,
0000
0000
0000
0000
,
0000
0000
0000
0000
,
0000
0000
0000
0000
,
0100
0100
0100
0100
0000
0000
0000
0000
,
0100
0100
0100
0100
0100
0100
0100
0100
,
0000
0000
0000
0000
,
0000
0000
0000
0000
0001
0010
0100
0010
0001
0010
0100
0010
0001
0010
0100
0010
,
0001
1000
0100
0010
0100
1000
0100
0010
0100
1000
0100
0010
0100
1000
0100
0010
,
1001
0000
0000
0000
0001
0010
0100
1000
0001
0010
0100
1000
0001
1000
0010
1000
,
0100
0010
0001
1000
0100
0010
0001
1000
0100
0010
0001
0100
0001
0010
0001
0100
,
0010
0000
0001
0000
0100
0000
0010
0000
1000
0000
0100
0000
0010
0000
1000
0100
0010
0000
0000
0000
0000
0000
0000
0000
0010
0000
0100
0000
1000
0000
0010
0000
,
0100
0001
0010
0001
0100
0010
1000
0100
1000
0010
0100
0001
0010
0001
1000
0100
,
0001
0000
0010
0000
1000
0000
0001
0000
0100
0000
1000
0000
0001
0000
0010
0000
1000
0000
0100
0000
0001
0000
1000
0000
0100
0000
0001
0000
1000
0000
0010
0001
,
1000
0000
0000
0000
0100
0001
1000
0010
0100
0001
1000
0010
0100
0001
0010
1000
,
0001
0010
1000
0010
0100
0001
0100
0010
1000
0010
1000
0100
1001
0000
1001
0010
,
0100
0010
1001
0000
0100
0010
1001
0000
1001
0100
0010
0100
1001
0000
1001
0000
,
0101
0000
0011
0000
0101
0000
0001
0010
0101
0000
0100
0010
0001
0100
1010
0000
,
0001
0100
0001
0100
1010
0000
0001
0100
1010
0000
0000
0000
0000
0000
0000
0000
,
1001
0000
0000
0000
0001
0100
0001
0010
1000
0100
1001
0000
0001
0100
1010
0000
,
0110
0000
0101
0000
0001
0100
0001
0010
0002
0000
0000
0000
0000
0000
0000
0003
,
0001
0010
0100
0001
0010
0001
0010
0001
1010
0000
0100
1010
0000
0000
1000
0010
,
1000
0010
0100
1000
0001
0100
0001
0100
1001
0000
1001
0000
0001
0010
1000
0001
,
1010
0000
0000
0000
0000
0000
0101
1010
0101
0000
0001
0100
0010
1000
0011
0000
,
0011
0000
0000
0000
0000
0000
0000
0000
0000
0000
0000
0000
0000
0000
0000
0000
0000
0000
0000
0000
0000
0000
0000
0000
0000
0000
0000
0000
0000
0000
0000
0000
0000
0000
0000
0000
0000
0000
0000
0000
0000
0000
0000
0000
0000
0000
0000
0000
0000
0000
0000
0000
0000
0000
0000
0000
0000
0000
0000
0000
0000
0000
0000
0000
0000
0000
0000
0000
0000
0000
0000
0000
0000
0000
0000
0000
0000
0000
0000
0000
0000
0000
0000
0000
1010
0000
0000
0000
0000
0000
0000
0000
0000
0000
0000
0000
0101
0000
0000
0000
0000
0000
0000
0000
0000
0000
0000
0000
1010
0000
0000
0000
0000
0000
0000
0000
0000
0000
0000
0000
0100
0000
0000
0000
0000
0000
0000
0000
0000
0000
0000
0000
1000
0000
0000
0000
0000
0000
0000
0000
0000
0000
0000
0000
0100
0000
0000
0010
0000
0000
0001
0000
0000
1000
0000
0000
0100
0000
0000
0010
0000
0000
0001
0000
0000
1000
0000
0000
0100
0000
0000
0000
0010
0000
0000
0000
0001
0000
0000
0000
1000
0000
0000
0000
0100
0000
0000
0000
0010
0000
0000
0000
,
0001
0000
0000
0000
0000
0000
1001
0000
0000
0000
0000
0000
0001
0000
0000
0010
0000
0000
0001
0000
0000
0100
0000
0000
1001
0000
0000
0000
0000
0000
1000
0000
0100
0000
0010
0000
1000
0000
0100
0000
0010
0000
1000
0000
0100
0000
0010
0000
,
2000
0000
3200
0000
0320
0032
0203
0302
1013
0101
0000
0000
0000
0000
0000
0000
,
0000
0000
0000
0000
,
0000
0000
0000
0000
,
1000
1001
0000
0000
0000
0000
0000
0000
;

//---------------dance-single - ----------------
#NOTES:
     dance-single:
     :
     Hard:
     12:
     1.000,1.000,1.000,0.237,1.000,939.000,196.000,35.000,0.000,2.000:
0000
0000
0000
0000
,
0000
0000
0000
0000
,
0000
0000
0000
0000
,
0000
0000
0000
0000
,
0000
0000
0000
0000
,
1001
0000
0000
1001
0000
0000
0010
0000
0010
0100
0010
1000
0010
0000
0010
0100
,
1010
0000
0000
0000
1010
0000
0000
1000
0000
0010
0001
0010
0100
0001
0010
0100
,
1000
0100
1000
0010
1000
0000
1000
0000
1001
0000
0000
1100
0000
0000
0020
0030
,
0020
0000
0030
0000
0010
0000
0100
1000
0100
0010
0001
0010
0100
0000
1000
0000
0001
0000
0000
0000
0101
0000
0000
0000
1001
0000
0000
0000
0000
0000
0110
0000
,
0000
0000
0010
0100
0010
1000
0100
0000
0100
0001
0100
0010
0001
1000
0100
0010
,
1001
0000
0000
1001
0000
0000
0001
0010
0001
0010
0001
0100
0010
0100
0010
1000
,
0100
0010
0001
0100
1001
0000
0000
1001
0000
0000
0010
0100
0001
0100
0010
0100
,
0001
0100
0010
0100
1000
0001
1010
0000
1100
0000
0000
1010
0000
0100
1000
0000
,
1000
0000
1000
0100
0010
1000
0100
0001
1000
0010
0001
1000
0201
0000
0300
0210
,
0000
0300
0001
1000
0010
0100
2000
0100
3010
1000
0001
1000
0110
0000
0110
0000
,
0101
0000
0000
0101
0000
0000
0001
0010
1000
0001
1000
0001
1010
0000
1000
0100
,
1001
0000
1001
0000
0101
0000
0000
0101
0000
0000
0001
0100
0001
0100
0001
0100
,
0010
0001
1000
0100
0010
1000
0101
0000
0101
0000
0000
0101
0000
0000
0002
0023
,
0032
0000
2003
0000
3002
0000
0003
0000
0100
0010
1000
0001
0100
0000
0010
0000
1001
0000
0000
0000
0202
0000
0303
0000
1010
0000
0000
0000
0000
0000
0101
0000
,
0000
0000
0001
0100
0010
1000
0010
1000
0100
0010
0100
1000
0001
0010
0101
0000
,
1010
0000
0000
0101
0000
0000
0001
0010
0100
0001
0010
1000
0010
0001
0010
1000
,
0001
0010
0001
1000
0101
0000
0101
0000
0010
0101
0000
0000
0001
0100
0001
0100
,
1000
0010
1000
0010
0100
0001
0010
0001
1100
0000
0000
1010
0000
0000
1010
0000
,
1010
0000
0100
0000
0100
0010
1001
0000
0010
0100
1001
0000
0002
0000
0003
0002
,
0000
0003
0000
0000
0000
0000
0002
0000
0003
0010
0001
0010
0001
0100
0001
0010
,
1001
0000
0000
0101
0000
0000
1010
0000
0100
0000
0101
0000
0001
0000
0001
0010
,
0101
0000
1001
0000
1010
0000
0000
1100
0000
0000
1000
0001
1000
0010
1000
0100
,
1001
0000
0010
0100
1000
0001
1010
0000
1001
0000
0000
1010
0000
0000
1000
0010
,
1000
0000
0000
0001
0000
0000
0010
0000
0100
0000
1000
0000
0001
0000
0000
0010
0000
0000
0101
0000
0000
1010
0000
0000
0000
0000
0000
0000
0000
0000
0000
0000
0000
0000
0000
0000
0000
0000
0000
0000
0000
0000
0000
0000
0000
0000
0000
0000
,
0000
0000
0000
0000
0000
0000
0000
0110
,
0110
0000
0000
0110
0000
0000
0010
0100
0010
0100
1001
0000
1001
0000
1001
0010
,
0100
1000
0001
0010
1100
0000
0000
1010
0000
0000
1000
0010
1000
0010
1000
0001
,
1000
0010
1000
0100
0010
0001
1010
0000
1010
0000
0000
1100
0000
0000
2010
3000
,
2001
3000
0001
0010
1000
0010
0001
0010
0001
0100
0010
1000
0201
0000
0300
0201
,
0000
0300
0101
0000
0010
0101
2000
0000
3101
0000
0001
0100
0001
0000
1001
0000
,
1100
0000
0000
1100
0000
0000
1100
0000
1100
0000
1100
0000
1100
0000
1000
0100
,
0001
0000
0101
0000
0110
0000
0000
0110
0000
0000
2000
0000
3002
0000
0013
0100
,
0002
0103
0010
1000
0100
0010
1000
0100
1001
0000
0000
1010
0000
0000
1000
0100
,
0010
0000
0000
0001
0000
0000
1000
0000
0100
0000
0010
0000
0001
0000
0000
0100
0000
0000
1010
0000
0000
0101
0000
0000
0000
0000
0000
0000
0000
0000
0000
0000
0000
0000
0000
0000
0000
0000
0000
0000
0000
0000
0000
0000
0000
0000
0000
0000
,
0000
0000
0000
0000
0000
0000
0000
0101
,
0110
0000
0000
0110
0000
0010
1001
0000
0001
0100
0001
0010
0100
1000
0001
0100
,
0001
0010
2000
3000
0011
0000
0000
1001
0000
0000
0100
1000
0010
0100
0010
1000
,
0010
0100
0010
0001
0010
0100
1010
0000
1010
0000
0000
1001
0000
0000
0011
0000
,
0011
0000
0001
0010
0001
0100
0001
0010
0001
1000
0001
0010
0002
0000
0003
0002
,
0000
0003
0000
0000
0000
0000
0002
0000
0003
0000
0000
0000
0000
0000
0000
0000
,
1001
0001
0001
0001
0001
0001
0001
0001
,
0011
0001
0001
0001
0101
0001
0001
0001
,
0001
0001
0001
0001
1001
0001
0001
0001
,
0001
0001
0101
0001
0001
0001
0001
0001
,
0001
0001
0001
0001
0001
0001
0001
0001
,
0101
0001
0001
0001
0001
0001
0001
0001
,
0011
0001
0001
0001
1001
0001
0001
0001
,
0001
0001
0001
0001
0011
0001
0001
0001
,
0001
0001
0101
0001
0001
0001
0001
0001
,
0001
0001
0001
0001
0001
0001
0001
0001
,
1001
0000
0010
0000
0010
0000
0010
0000
0010
0100
0010
1000
0010
0100
0010
0100
,
1010
1000
1000
1000
1010
1000
1000
1000
,
0010
0100
0001
0100
0010
1000
0010
1000
0101
0000
0001
0000
0001
0000
0001
0000
,
0101
0001
0101
0100
0100
0100
0100
0110
,
1010
1000
1000
1000
1000
1010
1000
1100
,
1001
0001
0001
0001
0001
0001
0001
0001
,
0101
0100
0100
0100
0101
0100
0100
0100
,
0001
0100
0001
0010
0001
0100
0001
0010
1001
0000
1000
0000
1000
0000
1000
0000
,
1010
0010
0110
0100
0100
0100
0100
0110
,
0101
0001
0001
0001
0001
0001
0101
0001
,
1001
0000
1100
0000
1010
0000
0010
0000
0010
0000
0010
0000
0010
1000
0010
0100
,
1010
1000
1010
0010
0110
0100
0100
0100
,
0110
0000
0101
0000
0001
0010
0001
0000
0101
0000
0100
0000
0100
0000
0100
0000
,
0100
0100
0110
0010
0010
0010
0010
0011
,
1001
1000
1000
1000
1000
1000
1010
0010
,
1010
0000
1000
0000
1000
0000
1000
0000
1000
0010
1000
0010
1000
0100
0010
0001
,
1100
0100
0100
0100
0101
0100
0100
0110
,
1010
0000
1000
0100
0001
0100
0010
1000
0101
0000
0001
0000
1001
0000
1000
0000
,
1010
0010
0110
0100
0100
0100
0100
0110
,
1010
1000
1000
1000
1000
1000
1010
0010
,
0110
0100
0100
0100
0000
0000
0000
0000
,
0100
0100
0100
0100
0100
0100
0100
0100
,
0000
0000
0000
0000
,
0000
0000
0000
0000
,
0000
0000
0000
0000
,
0100
0100
0100
0100
0000
0000
0000
0000
,
0100
0100
0100
0100
0100
0100
0100
0100
,
0000
0000
0000
0000
,
0000
0000
0000
0000
0001
0010
0100
0010
0001
0010
0100
0010
0001
0010
0100
0010
,
0001
1000
0100
0010
0100
1000
0100
0010
0100
1000
0100
0010
0100
1000
0100
0010
,
1001
0000
0000
0000
0001
0010
0100
1000
0001
0010
0100
1000
0001
1000
0010
1000
,
0100
0010
0001
1000
0100
0010
0001
1000
0100
0010
0001
0100
0001
0010
0001
0100
,
0010
0000
0001
0000
0100
0000
0010
0000
1000
0000
0100
0000
0010
0000
1000
0100
0010
0000
0000
0000
0000
0000
0000
0000
0010
0000
0100
0000
1000
0000
0010
0000
,
0100
0001
0010
0001
0100
0010
1000
0100
1000
0010
0100
0001
0010
0001
1000
0100
,
0001
0000
0010
0000
1000
0000
0001
0000
0100
0000
1000
0000
0001
0000
0010
0000
1000
0000
0100
0000
0001
0000
1000
0000
0100
0000
0001
0000
1000
0000
0010
0001
,
1000
0000
0000
0000
0100
0001
1000
0010
0100
0001
1000
0010
0100
0001
0010
1000
,
0001
0010
1000
0010
0100
0001
0100
0010
1000
0010
1000
0100
1001
0000
1001
0010
,
0100
0010
1001
0000
0100
0010
1001
0000
1001
0100
0010
0100
1001
0000
1001
0000
,
0101
0000
0011
0000
0101
0000
0001
0010
0101
0000
0100
0010
0001
0100
1010
0000
,
0001
0100
0001
0100
1010
0000
0001
0100
1010
0000
0000
0000
0000
0000
0000
0000
,
1001
0000
0000
0000
0001
0100
0001
0010
1000
0100
1001
0000
0001
0100
1010
0000
,
0110
0000
0101
0000
0001
0100
0001
0010
0002
0000
0000
0000
0000
0000
0000
0003
,
0001
0010
0100
0001
0010
0001
0010
0001
1010
0000
0100
1010
0000
0000
1000
0010
,
1000
0010
0100
1000
0001
0100
0001
0100
1001
0000
1001
0000
0001
0010
1000
0001
,
1010
0000
0000
0000
0000
0000
0101
1010
0101
0000
0001
0100
0010
1000
0011
0000
,
0011
0000
0000
0000
0000
0000
0000
1010
0101
1010
0100
0010
2000
0000
0000
0000
,
0000
0000
0000
3000
0000
0000
1001
0000
0000
0000
0000
0000
0001
0000
0000
0010
0000
0000
0001
0000
0000
0100
0000
0000
1001
0000
0000
0000
0000
0000
1000
0000
0100
0000
0010
0000
1000
0000
0100
0000
0010
0000
1000
0000
0100
0000
0010
0000
,
2000
0000
3200
0000
0320
0032
0203
0302
1013
0101
0000
0000
0000
0000
0000
0000
,
0000
0000
0000
0000
,
0000
0000
0000
0000
,
1000
1001
0000
0000
0000
0000
0000
0000
;
